Mumia / The Mummy (...

[info] Tytuł: The Mummy / Mumia ================== Ocena: IMDB - 5.6/10 (90175), Filmweb - 5.4/10 (30099) Produkcja: USA Gatunek: Akcja, Przygodowy, Fantasy Czas trwania: 110 min. Premiera: 09.06.2017 - Polska, 22.05.2017 - Świat Reżyseria: Ale...

pobierz torrent
 

Piraci z Karaibów:...

[info] Tytuł: Pirates Of The Caribbean: Dead Men Tell No Tales Tytuł Polski: Piraci z Karaibów: Zemsta Salazara ================== Ocena: IMDB - 6.8/10 (121188), Filmweb - 7.0/10 (71968) Produkcja: Australia, USA Gatunek: Akcja, Przygodowy, Fantas...

pobierz torrent
 

Transformers: Ostat...

[info] Tytuł: Transformers: The Last Knight Polski Tytuł: Transformers: Ostatni Rycerz ================== Ocena: IMDB - 5.3/10 (45537), Filmweb - 6.0/10 (11800) Produkcja: USA Gatunek: Akcja, Przygodowy, Sci-Fi Czas trwania: 154 min. Premiera: 2...

pobierz torrent
Prison Break S05E05 - Contingency [1080p.WEB-DL.H.264.AC3] [Lektor PL] [ENG+Napisy PL]

Prison Break S05E05 - Contingency [1080p.WEB-DL.H.264.AC3] [Lektor PL] [ENG+Napisy PL]


Kategoria: TV / SERIALE / ZAGRANICZNE

Zaakceptował: nie wymagał akceptacji
Liczba pobrań: 64
Ostatnia aktualizacja: 2017-05-18 19:25:20

Dodał: silver230 Data: 18-05-2017 Komentarze: 0
Rozmiar: 1.80 GB format: ZAGRANICZNE Seed: 25Peer: 13
Info Obsada Opis Szczegóły Media
INFO:

produkcja: USA
gatunek: Akcja, Kryminał, Dramat
reżyseria: Nelson McCormick, Maja Vrvilo, Guy Ferland
scenariusz: Paul Scheuring, Jennifer Desmond
zdjęcia: Jeffrey C. Mygatt
muzyka: Ramin Djawadi
czas trwania: ok. 43 min.

OPIS:

Akcja piątego sezonu "Prison Break" będzie osadzona w Jemenie, gdzie w jednym z więzień przebywa Michael Scofield. Jego śmierć kilka lat temu została sfingowana, co będzie szokiem dla Lincolna oraz Sary, która przez ten czas wyszła za mąż. W nowym sezonie ważne będzie tło polityczne. Wszak Jemen jest pogrążony w wojnie, w której ścierają się ze sobą siły rządowe, rebelianci z ruchu Huti wraz z częścią armii jemeńskiej popierającej byłego prezydenta Ali Abd Allah Saliha, Al-Ka’ida Półwyspu Arabskiego oraz Państwo Islamskie.

OBSADA:

Rockmond Dunbar - Benjamin Miles 'C-Note' Franklin
Robert Knepper - Theodore 'T-Bag' Bagwell
Wentworth Miller - Michael Scofield
Amaury Nolasco - Fernando Sucre
Dominic Purcell - Lincoln Burrows
Sarah Wayne Callies - Dr. Sara Tancredi
Marina Benedict - A&W
Christian Michael Cooper - Mike Scofield
Mark Feuerstein - Jacob Anton Ness
Steve Mouzakis - Van Gogh

DANE:

Format : Matroska
Format version : Version 4 / Version 2
File size : 1.80 GiB
Duration : 43mn 26s
Overall bit rate : 5 930 Kbps
Encoded date : UTC 2017-05-17 13:00:27

Video
ID : 1
Format : AVC
Format/INFO : Advanced Video Codec
Format profile : High@L4.0
Format settings, CABAC : Yes
Format settings, ReFrames : 4 frames
Codec ID : V_MPEG4/ISO/AVC
Bit rate : 5 044 Kbps
Width : 1 916 pixels
Height : 1 076 pixels
Display aspect ratio : 16:9
Frame rate mode : Variable
Color space : YUV
Chroma subsampling : 4:2:0
Bit depth : 8 bits
Scan type : Progressive
Color primaries : BT.709
Transfer characteristics : BT.709
Matrix coefficients : BT.709

Audio 1
ID : 2
Format : AC-3
Format/INFO : Audio Coding 3
Mode extension : CM (complete main)
Format settings, Endianness : Big
Codec ID : A_AC3
Duration : 43mn 26s
Bit rate mode : Constant
Bit rate : 384 Kbps
Channel(s) : 2 channels
Channel positions : Front: L R
Sampling rate : 48.0 KHz
Bit depth : 16 bits
Compression mode : Lossy
Stream size : 119 MiB (6%)
Language : Polish
Default : Yes
Forced : Yes

Audio 2
ID : 3
Format : AC-3
Format/INFO : Audio Coding 3
Mode extension : CM (complete main)
Format settings, Endianness : Big
Codec ID : A_AC3
Duration : 43mn 26s
Bit rate mode : Constant
Bit rate : 384 Kbps
Channel(s) : 6 channels
Channel positions : Front: L C R, Side: L R, LFE
Sampling rate : 48.0 KHz
Bit depth : 16 bits
Compression mode : Lossy
Stream size : 119 MiB (6%)
Language : English
Default : No
Forced : No

Text
ID : 4
Format : UTF-8
Codec ID : S_TEXT/UTF8
Codec ID/INFO : UTF-8 Plain Text
Language : Polish
Default : No
Forced : No

DETALE TORRENTA:[ Pokaż/Ukryj ]


wczytaj więcej torrentów
Copyright © 2015 All rights reserved Best-Torrents.net | Designed by Best-Torrents.net Torrenty są własnością użytkowników. Administrator serwisu nie może ponieść konsekwencji za to co użytkownicy wstawiają, lub za to co czynią na stronie. Nie możesz używać tego serwisu do rozpowszechniania lub ściągania materiałów do których nie masz odpowiednich praw lub licencji. Użytkownicy odpowiedzialni są za przestrzeganie tych zasad. PolicyDMCA