Atomic Blonde (2017...

INFO : produkcja: Niemcy , Szwecja , USA premiera: 28 lipca 2017 (Polska) 12 marca 2017 (świat) reżyseria: David Leitch scenariusz: Kurt Johnstad gatunek: Thriller , Akcja OPIS : Ekranizacja kultowej graficznej powieści Antony’ego Johnstona....

pobierz torrent
 

Belfer (2017) [S02E...

INFO : Ocena:IMDB - 8.1/10 (370), Filmweb - 8.1/10 (69508) Gatunek: Kryminał Produkcja: Polska Stacja telewizyjna: Canal+ Data premiery 2 sezonu: 22.10.2017 - Świat Czas trwania odcinka około 50 min. Reżyseria: Krzysztof Łukaszewicz, Maciek Boch...

pobierz torrent
 

WATAHA (2017) [S02E...

INFO : Produkcja: Polska Premiera: 15.10.2017 Reżyseria: Kasia Adamik, Jan P. Matuszyński Scenariusz: Piotr Szymanek, Katarzyna Tybinka, Bartosz Janiszewski, Marta Szymanek Gatunek: Sensacyjny, Thriller OPIS : Cztery lata po wydarzeniach z...

pobierz torrent
PIRACI Z KARAIBÓW: ZEMSTA SALAZARA / PIRATES OF THE CARIBBEAN DEAD MEN TELL NO TALES (2017) [720P] [WEB-DL] [H264] [AC3-FGT] [NAPISY PL] [ENTER1973]

PIRACI Z KARAIBÓW: ZEMSTA SALAZARA / PIRATES OF THE CARIBBEAN DEAD MEN TELL NO TALES (2017) [720P] [WEB-DL] [H264] [AC3-FGT] [NAPISY PL] [ENTER1973]


Kategoria: FILMY / HD / x264

Zaakceptował: Aladyn1111
Liczba pobrań: 111
Ostatnia aktualizacja: 2017-09-05 23:25:53

Dodał: enter1973 Data: 05-09-2017 Komentarze: 0
Rozmiar: 4.16 GB format: HD / x264 Seed: 5Peer: 21
Info Obsada Opis Szczegóły Media

Piraci z Karaibów: Zemsta Salazara

Pirates of the Caribbean: Dead Men Tell No Tales

Ocena: 7.14

Gatunek: Fantasy,Przygodowy
Premiera: 2017
Czas trwania: 129


Złowrogi korsarz ucieka z mitycznego więzienia i planuje zgładzić wszystkich piratów na morzach. Aby mu przeszkodzić, Jack Sparrow musi zdobyć Trójząb Posejdona.
Johnny Depp
Kapitan Jack Sparrow
Javier Bardem
Kapitan Salazar
Geoffrey Rush
Kapitan Hector Barbossa
Brenton Thwaites
Henry Turner
Kaya Scodelario
Carina Smyth
Kevin McNally
Joshamee Gibbs
Golshifteh Farahani
Shansa
David Wenham
Scarfield
Stephen Graham
Scrum
Angus Barnett
Mullroy
Martin Klebba
Marty
Adam Brown
Cremble
Giles New
Murtogg
Orlando Bloom
Will Turner
Keira Knightley
Elizabeth Swann
INFO:

Produkcja: Australia, USA
Gatunek: Fantasy, Przygodowy
Premiera: 26 maja 2017 (Polska), 11 maja 2017 (świat)
Reżyseria: Espen Sandberg
Scenariusz: Jeff Nathanson



OPIS:


Złowrogi korsarz ucieka z mitycznego więzienia i planuje zgładzić wszystkich piratów na morzach. Aby mu przeszkodzić, Jack Sparrow musi zdobyć Trójząb Posejdona.



OBSADA:


★ Johnny Depp ........ Kapitan Jack Sparrow
★ Javier Bardem ........ Kapitan Salazar
★ Geoffrey Rush ........ Kapitan Hector Barbossa
★ Brenton Thwaites ........ Henry Turner
★ Kaya Scodelario ........ Carina Smyth
★ Kevin McNally ........ Joshamee Gibbs
★ Golshifteh Farahani ........ Shansa
★ David Wenham ........ Scarfield



DANE TRCHNICZNE:

Pirates.of.the.Caribbean.Dead.Men.Tell.No.Tales.2017.720p.WEB-DL.XviD.AC3-FGT


Format : AVI
Format/INFO : Audio Video Interleave
Format profile : OpenDML
File size : 4.16 GiB
Duration : 2 h 9 min
Overall bit rate : 4 613 kb/s
Writing application : Lavf56.36.100
FileExtension_Invalid : avi

Video
ID : 0
Format : AVC
Format/INFO : Advanced Video Codec
Format profile : Baseline@L1.3
Format settings, CABAC : No
Format settings, ReFrames : 2 frames
Codec ID : H264
Duration : 2 h 9 min
Bit rate : 4 000 kb/s
Width : 1 280 pixels
Height : 532 pixels
Display aspect ratio : 16:9
Frame rate mode : Variable
Frame rate : 23.976 (24000/1001) FPS
Color space : YUV
Chroma subsampling : 4:2:0
Bit depth : 8 bits
Scan type : Progressive
Bits/(Pixel*Frame) : 0.245
Stream size : 3.58 GiB (86%)
Writing library : x264 core 148 r2579 73ae2d1
Encoding settings : cabac=0 / ref=2 / deblock=1:0:0 / analyse=0x1:0x111 / me=umh / subme=6 / psy=1 / psy_rd=1.00:0.00 / mixed_ref=1 / me_range=16 / chroma_me=1 / trellis=0 / 8x8dct=0 / cqm=0 / deadzone=21,11 / fast_pskip=1 / chroma_qp_offset=-2 / threads=6 / lookahead_threads=1 / sliced_threads=0 / nr=0 / decimate=1 / interlaced=0 / bluray_compat=0 / constrained_intra=0 / bframes=0 / weightp=0 / keyint=250 / keyint_min=23 / scenecut=40 / intra_refresh=0 / rc_lookahead=40 / rc=abr / mbtree=1 / bitrate=4000 / ratetol=1.0 / qcomp=0.60 / qpmin=0 / qpmax=69 / qpstep=4 / ip_ratio=1.40 / aq=1:1.00

Audio
ID : 1
Format : AC-3
Format/INFO : Audio Coding 3
Codec ID : 00001000-0000-0020-8000-00AA00389B71
Duration : 2 h 9 min
Bit rate : 640 kb/s
Channel(s) : 6 channels
Channel positions : Front: L C R, Back: L R, LFE
Sampling rate : 48.0 kHz
Bit depth : 16 bits
Compression mode : Lossy
Stream size : 591 MiB (14%)
Interleave, duration : 32 ms (0.77 video frame)

DETALE TORRENTA:[ Pokaż/Ukryj ]


wczytaj więcej torrentów

Pomocne

Kontakt
DMCA
Forum
Copyright © 2015 All rights reserved Best-Torrents.net | Designed by Best-Torrents.net Torrenty są własnością użytkowników. Administrator serwisu nie może ponieść konsekwencji za to co użytkownicy wstawiają, lub za to co czynią na stronie. Nie możesz używać tego serwisu do rozpowszechniania lub ściągania materiałów do których nie masz odpowiednich praw lub licencji. Użytkownicy odpowiedzialni są za przestrzeganie tych zasad. PolicyDMCA