Mała Wielka Stopa ...

INFO : produkcja: Belgia , Francja premiera: 28 lipca 2017 (Polska) 26 lipca 2017 (świat) reżyseria: Ben Stassen , Jeremy Degruson scenariusz: Bob Barlen , Cal Brunker gatunek: Animacja , Komedia OPIS : Adam jest zwyczajnym, trochę nieśmiały...

pobierz torrent
 

Zaginiony bez ślad...

INFO : produkcja: USA premiera: 2 września 2016 (świat) reżyseria: Robin Swicord scenariusz: Robin Swicord gatunek: Dramat OPIS : Howard Wakefield (Bryan Cranston) wydaje się być uosobieniem sukcesu. Jest prawnikiem w cenionej kancelarii na ...

pobierz torrent
 

Tożsamość zdrajc...

INFO : produkcja: Wielka Brytania premiera: 23 czerwca 2017 (Polska) 27 kwietnia 2017 (świat) reżyseria: Michael Apted scenariusz: Peter O'Brien gatunek: Thriller , Akcja OPIS : CIA aresztuje mężczyznę podejrzanego o planowanie ataku na Lond...

pobierz torrent
Lucifer S02E16 - God Johnson [720p.WEB-DL.H.264.DD5.1] [Napisy PL]

Lucifer S02E16 - God Johnson [720p.WEB-DL.H.264.DD5.1] [Napisy PL]


Kategoria: TV / SERIALE / ZAGRANICZNE

Zaakceptował: nie wymagał akceptacji
Liczba pobrań: 131
Ostatnia aktualizacja: 2017-05-18 19:38:28

Dodał: silver230 Data: 18-05-2017 Komentarze: 0
Rozmiar: 1.38 GB format: ZAGRANICZNE Seed: 51Peer: 24
Info Obsada Opis Szczegóły Media
INFO:

produkcja: USA
gatunek: Kryminał, Fantasy
reżyseria: Len Wiseman, Nathan Hope, Tim Matheson
scenariusz: Tom Kapinos
muzyka: Marco Beltrami, Dennis Smith
zdjęcia: Glen Keenan
czas trwania: ok. 44 min.

OPIS:

Nieszczęśliwy i znudzony swoim bytem Lucifer Morningstar porzuca funkcję Władcy Piekieł i udaje się do Los Angeles, gdzie zostaje właścicielem luksusowego klubu nocnego.

OBSADA:

Tom Ellis - Lucifer Morningstar
Rachael Harris - Dr Linda Martin
Lesley-Ann Brandt - Mazikeen "Maze"
Lauren German - Chloe Dancer
Nicholas Gonzalez - Dan
D.B. Woodside - Amenadiel
Scarlett Estevez - Trixie

DANE:

Format : Matroska
Format version : Version 4 / Version 2
File size : 1.38 GiB
Duration : 43mn 57s
Overall bit rate : 4 486 Kbps
Encoded date : UTC 2017-05-17 17:48:24

Video
ID : 1
Format : AVC
Format/INFO : Advanced Video Codec
Format profile : High@L3.1
Format settings, CABAC : No
Format settings, ReFrames : 2 frames
Codec ID : V_MPEG4/ISO/AVC
Duration : 43mn 57s
Bit rate : 4 013 Kbps
Width : 1 280 pixels
Height : 718 pixels
Display aspect ratio : 16:9
Frame rate mode : Constant
Frame rate : 23.976 fps
Color space : YUV
Chroma subsampling : 4:2:0
Bit depth : 8 bits
Scan type : Progressive
Bits/(Pixel*Frame) : 0.182
Stream size : 1.23 GiB (89%)
Color primaries : BT.709
Transfer characteristics : BT.709
Matrix coefficients : BT.709

Audio
ID : 2
Format : AC-3
Format/INFO : Audio Coding 3
Mode extension : CM (complete main)
Format settings, Endianness : Big
Codec ID : A_AC3
Duration : 43mn 57s
Bit rate mode : Constant
Bit rate : 384 Kbps
Channel(s) : 6 channels
Channel positions : Front: L C R, Side: L R, LFE
Sampling rate : 48.0 KHz
Bit depth : 16 bits
Compression mode : Lossy
Stream size : 121 MiB (9%)
Language : English

Text
ID : 3
Format : UTF-8
Codec ID : S_TEXT/UTF8
Codec ID/INFO : UTF-8 Plain Text
Language : Polish

DETALE TORRENTA:[ Pokaż/Ukryj ]


wczytaj więcej torrentów
Copyright © 2015 All rights reserved Best-Torrents.net | Designed by Best-Torrents.net Torrenty są własnością użytkowników. Administrator serwisu nie może ponieść konsekwencji za to co użytkownicy wstawiają, lub za to co czynią na stronie. Nie możesz używać tego serwisu do rozpowszechniania lub ściągania materiałów do których nie masz odpowiednich praw lub licencji. Użytkownicy odpowiedzialni są za przestrzeganie tych zasad. PolicyDMCA