Mała Wielka Stopa ...

INFO : produkcja: Belgia , Francja premiera: 28 lipca 2017 (Polska) 26 lipca 2017 (świat) reżyseria: Ben Stassen , Jeremy Degruson scenariusz: Bob Barlen , Cal Brunker gatunek: Animacja , Komedia OPIS : Adam jest zwyczajnym, trochę nieśmiały...

pobierz torrent
 

Zaginiony bez ślad...

INFO : produkcja: USA premiera: 2 września 2016 (świat) reżyseria: Robin Swicord scenariusz: Robin Swicord gatunek: Dramat OPIS : Howard Wakefield (Bryan Cranston) wydaje się być uosobieniem sukcesu. Jest prawnikiem w cenionej kancelarii na ...

pobierz torrent
 

Tożsamość zdrajc...

INFO : produkcja: Wielka Brytania premiera: 23 czerwca 2017 (Polska) 27 kwietnia 2017 (świat) reżyseria: Michael Apted scenariusz: Peter O'Brien gatunek: Thriller , Akcja OPIS : CIA aresztuje mężczyznę podejrzanego o planowanie ataku na Lond...

pobierz torrent
Billions S02E12 - Ball in Hand [720p.AMZN.WEBRip.x264.AC3] [Lektor PL]

Billions S02E12 - Ball in Hand [720p.AMZN.WEBRip.x264.AC3] [Lektor PL]


Kategoria: TV / SERIALE / ZAGRANICZNE

Zaakceptował: nie wymagał akceptacji
Liczba pobrań: 38
Ostatnia aktualizacja: 2017-05-18 19:41:14

Dodał: silver230 Data: 18-05-2017 Komentarze: 0
Rozmiar: 1.66 GB format: ZAGRANICZNE Seed: 4Peer: 10
Info Obsada Opis Szczegóły Media
INFO:

produkcja: USA
gatunek: Dramat
scenariusz: Andrew Ross Sorkin, Brian Koppelman, David Levien
reżyseria: Neil Burger, James Foley, Scott Hornbacher, Susanna White
zdjęcia: Radium Cheung, Jake Polonsky
muzyka: Eskmo
czas trwania: ok. 57 min.

OPIS:

Serial Billions opowiada o nietypowej relacji łączącej surowego prokuratora, Chucka Rhoadesa, oraz błyskotliwego i ambitnego króla funduszu hedgingowego, Bobby’ego "Axe" Axelroda.

OBSADA:

Damian Lewis - Bobby "Axe" Axelrod
Paul Giamatti - Chuck Rhodes
Maggie Siff - Wendy Rhoades
David Costabile - Mike "Wags" Wagner
Condola Rashad - Kate Sacher
Malin Akerman - Lara Axelrod
Toby Leonard Moore - Bryan Connerty
Kelly AuCoin - "Dollar" Bill Stearn

DANE:

Format : Matroska
Format version : Version 4 / Version 2
File size : 1.66 GiB
Duration : 1h 0mn
Overall bit rate : 3 955 Kbps
Encoded date : UTC 2017-05-17 17:50:22

Video
ID : 1
Format : AVC
Format/INFO : Advanced Video Codec
Format profile : High@L4.1
Format settings, CABAC : Yes
Format settings, ReFrames : 9 frames
Codec ID : V_MPEG4/ISO/AVC
Duration : 1h 0mn
Bit rate : 3 492 Kbps
Width : 1 280 pixels
Height : 720 pixels
Display aspect ratio : 16:9
Frame rate mode : Constant
Frame rate : 23.976 fps
Color space : YUV
Chroma subsampling : 4:2:0
Bit depth : 8 bits
Scan type : Progressive
Bits/(Pixel*Frame) : 0.158
Stream size : 1.47 GiB (88%)
Writing library : x264 core 144 r2525

Audio
ID : 2
Format : AC-3
Format/INFO : Audio Coding 3
Mode extension : CM (complete main)
Format settings, Endianness : Big
Codec ID : A_AC3
Duration : 1h 0mn
Bit rate mode : Constant
Bit rate : 384 Kbps
Channel(s) : 2 channels
Channel positions : Front: L R
Sampling rate : 48.0 KHz
Bit depth : 16 bits
Compression mode : Lossy
Stream size : 165 MiB (10%)
Language : Polish

DETALE TORRENTA:[ Pokaż/Ukryj ]


wczytaj więcej torrentów
Copyright © 2015 All rights reserved Best-Torrents.net | Designed by Best-Torrents.net Torrenty są własnością użytkowników. Administrator serwisu nie może ponieść konsekwencji za to co użytkownicy wstawiają, lub za to co czynią na stronie. Nie możesz używać tego serwisu do rozpowszechniania lub ściągania materiałów do których nie masz odpowiednich praw lub licencji. Użytkownicy odpowiedzialni są za przestrzeganie tych zasad. PolicyDMCA