Mała Wielka Stopa ...

INFO : produkcja: Belgia , Francja premiera: 28 lipca 2017 (Polska) 26 lipca 2017 (świat) reżyseria: Ben Stassen , Jeremy Degruson scenariusz: Bob Barlen , Cal Brunker gatunek: Animacja , Komedia OPIS : Adam jest zwyczajnym, trochę nieśmiały...

pobierz torrent
 

Zaginiony bez ślad...

INFO : produkcja: USA premiera: 2 września 2016 (świat) reżyseria: Robin Swicord scenariusz: Robin Swicord gatunek: Dramat OPIS : Howard Wakefield (Bryan Cranston) wydaje się być uosobieniem sukcesu. Jest prawnikiem w cenionej kancelarii na ...

pobierz torrent
 

Tożsamość zdrajc...

INFO : produkcja: Wielka Brytania premiera: 23 czerwca 2017 (Polska) 27 kwietnia 2017 (świat) reżyseria: Michael Apted scenariusz: Peter O'Brien gatunek: Thriller , Akcja OPIS : CIA aresztuje mężczyznę podejrzanego o planowanie ataku na Lond...

pobierz torrent
Better Call Saul S03E06 - Off Brand [1080p.WEB-DL.H.264.AC3] [Lektor PL] [ENG+Napisy PL]

Better Call Saul S03E06 - Off Brand [1080p.WEB-DL.H.264.AC3] [Lektor PL] [ENG+Napisy PL]


Kategoria: TV / SERIALE / ZAGRANICZNE

Zaakceptował: nie wymagał akceptacji
Liczba pobrań: 32
Ostatnia aktualizacja: 2017-05-18 19:27:56

Dodał: silver230 Data: 18-05-2017 Komentarze: 0
Rozmiar: 1.99 GB format: ZAGRANICZNE Seed: 17Peer: 5
Info Obsada Opis Szczegóły Media
INFO:

produkcja: USA
gatunek: Kryminał, Dramat, Komedia
reżyseria: Vince Gilligan, Adam Bernstein, Michelle MacLaren
scenariusz: Vince Gilligan, Peter Gould
muzyka: Dave Porter
czas trwania: ok. 52 min.

OPIS:

Akcja "Better Call Saul", prequela "Breaking Bad", rozpoczyna się 6 lat przed tym, jak Saul Goodman poznał Waltera White'a. Głównego bohatera poznajemy jako Jimmy'ego McGilla, początkującego prawnika szukającego przeznaczenia i celu w życiu. Serial przedstawia transformację Jimmy'ego w Saula Goodmana – osobę, która w przyszłości pomaga White'owi.

OBSADA:

Bob Odenkirk - Jimmy McGill/Saul Goodman
Jonathan Banks - Mike Ehrmantraut
Rhea Seehorn - Kim Wexler
Patrick Fabian - Howard Hamlin
Michael Mando - Nacho Varga
Michael McKean - Chuck McGill

DANE:

Format : Matroska
Format version : Version 4 / Version 2
File size : 1.99 GiB
Duration : 47mn 29s
Overall bit rate : 6 011 Kbps
Encoded date : UTC 2017-05-17 12:56:23

Video
ID : 1
Format : AVC
Format/INFO : Advanced Video Codec
Format profile : High@L4.0
Format settings, CABAC : Yes
Format settings, ReFrames : 4 frames
Codec ID : V_MPEG4/ISO/AVC
Duration : 47mn 29s
Bit rate : 5 124 Kbps
Width : 1 916 pixels
Height : 1 076 pixels
Display aspect ratio : 16:9
Frame rate mode : Constant
Frame rate : 23.976 fps
Color space : YUV
Chroma subsampling : 4:2:0
Bit depth : 8 bits
Scan type : Progressive
Bits/(Pixel*Frame) : 0.104
Stream size : 1.70 GiB (85%)
Color primaries : BT.709
Transfer characteristics : BT.709
Matrix coefficients : BT.709

Audio 1
ID : 2
Format : AC-3
Format/INFO : Audio Coding 3
Mode extension : CM (complete main)
Format settings, Endianness : Big
Codec ID : A_AC3
Duration : 47mn 29s
Bit rate mode : Constant
Bit rate : 384 Kbps
Channel(s) : 2 channels
Channel positions : Front: L R
Sampling rate : 48.0 KHz
Bit depth : 16 bits
Compression mode : Lossy
Stream size : 130 MiB (6%)
Language : Polish
Default : Yes
Forced : Yes

Audio 2
ID : 3
Format : AC-3
Format/INFO : Audio Coding 3
Mode extension : CM (complete main)
Format settings, Endianness : Big
Codec ID : A_AC3
Duration : 47mn 29s
Bit rate mode : Constant
Bit rate : 384 Kbps
Channel(s) : 6 channels
Channel positions : Front: L C R, Side: L R, LFE
Sampling rate : 48.0 KHz
Bit depth : 16 bits
Compression mode : Lossy
Stream size : 130 MiB (6%)
Language : English
Default : No
Forced : No

Text
ID : 4
Format : UTF-8
Codec ID : S_TEXT/UTF8
Codec ID/INFO : UTF-8 Plain Text
Language : Polish
Default : No
Forced : No

DETALE TORRENTA:[ Pokaż/Ukryj ]


wczytaj więcej torrentów
Copyright © 2015 All rights reserved Best-Torrents.net | Designed by Best-Torrents.net Torrenty są własnością użytkowników. Administrator serwisu nie może ponieść konsekwencji za to co użytkownicy wstawiają, lub za to co czynią na stronie. Nie możesz używać tego serwisu do rozpowszechniania lub ściągania materiałów do których nie masz odpowiednich praw lub licencji. Użytkownicy odpowiedzialni są za przestrzeganie tych zasad. PolicyDMCA